<?xml version="1.0" standalone="no"?>
<!DOCTYPE svg PUBLIC "-//W3C//DTD SVG 1.1//EN" "http://www.w3.org/Graphics/SVG/1.1/DTD/svg11.dtd" >
<svg>
<metadata>
Created by FontForge 20090622 at Thu Mar 10 02:13:25 2016
 By deploy user
</metadata>
<defs>
<font id="SourceHanSansTW-Medium-Alphabetic" horiz-adv-x="1000" vert-adv-y="1000" >
  <font-face 
    font-family="SourceHanSansTW-Medium-Alphabetic"
    font-weight="500"
    font-stretch="normal"
    units-per-em="1000"
    panose-1="2 0 6 3 0 0 0 0 0 0"
    ascent="800"
    descent="-200"
    bbox="21 -247 977 809"
    underline-thickness="50"
    underline-position="-100"
  />
<missing-glyph horiz-adv-x="364" 
d="M33 0v666h265v-666h-265zM66 33h199v600h-199v-600z" />
    <glyph glyph-name=".notdef" horiz-adv-x="364" 
d="M33 0v666h265v-666h-265zM66 33h199v600h-199v-600z" />
    <glyph glyph-name=".null" horiz-adv-x="0" vert-adv-y="0" 
 />
    <glyph glyph-name="nonmarkingreturn" horiz-adv-x="333" 
 />
    <glyph glyph-name="Identity.59024" 
d="M717 0l-74 209h-298l-73 -209h-123l273 738h146l277 -738h-128zM371 299h246l-37 103l-84 246h-4l-83 -246z" />
    <glyph glyph-name="Identity.59025" 
d="M232 0v738h259q139 0 212.5 -42.5t73.5 -139.5q0 -55 -29.5 -99t-85.5 -61v-5q75 -13 117.5 -58t42.5 -117q0 -216 -309 -216h-281zM348 429h134q178 0 178 110q0 59 -41.5 84t-130.5 25h-140v-219zM348 91h157q103 0 152 30t49 101q0 62 -49 90.5t-154 28.5h-155v-250z
" />
    <glyph glyph-name="Identity.59026" 
d="M828 95q-107 -107 -261 -107q-162 0 -264.5 101.5t-102.5 277.5t102.5 279.5t268.5 103.5q139 0 238 -93l-65 -75q-77 68 -171 68q-115 0 -184 -75.5t-69 -204.5t69 -204.5t184 -75.5q105 0 191 81z" />
    <glyph glyph-name="Identity.59027" 
d="M215 0v738h210q193 0 297 -93t104 -272t-103 -276t-291 -97h-217zM329 96h90q139 0 213 69.5t74 207.5q0 271 -287 271h-90v-548z" />
    <glyph glyph-name="Identity.59028" 
d="M271 0v738h493v-98h-377v-206h297v-99h-297v-236h389v-99h-505z" />
    <glyph glyph-name="Identity.59029" 
d="M288 0v738h495v-98h-379v-225h301v-99h-301v-316h-116z" />
    <glyph glyph-name="Identity.59030" 
d="M814 74q-98 -86 -259 -86q-171 0 -277.5 101.5t-106.5 277.5q0 175 108 279.5t276 104.5q146 0 250 -94l-67 -75q-79 68 -179 68q-118 0 -193 -76.5t-75 -203.5q0 -130 73.5 -205.5t202.5 -75.5q93 0 141 37v170h-174v96h280v-318z" />
    <glyph glyph-name="Identity.59031" 
d="M193 0v738h117v-302h381v302h116v-738h-116v335h-381v-335h-117z" />
    <glyph glyph-name="Identity.59032" 
d="M238 0v98h204v541h-204v99h526v-99h-206v-541h206v-98h-526z" />
    <glyph glyph-name="Identity.59033" 
d="M705 227q0 -106 -59 -172.5t-176 -66.5q-157 0 -240 125l82 60q56 -84 143 -84q133 0 133 148v501h117v-511z" />
    <glyph glyph-name="Identity.59034" 
d="M232 0v738h116v-357h4l336 357h134l-264 -286l305 -452h-131l-244 367l-140 -147v-220h-116z" />
    <glyph glyph-name="Identity.59035" 
d="M293 0v738h117v-639h367v-99h-484z" />
    <glyph glyph-name="Identity.59036" 
d="M142 0v738h135l163 -374l59 -149h5l59 149l159 374h135v-738h-108v364q0 86 15 230h-5l-71 -172l-153 -351h-72l-154 351l-70 172h-5q13 -145 13 -230v-364h-105z" />
    <glyph glyph-name="Identity.59037" 
d="M199 0v738h118l284 -428l100 -162h5q-15 127 -15 247v343h111v-738h-119l-284 430l-98 161h-5q13 -167 13 -245v-346h-110z" />
    <glyph glyph-name="Identity.59038" 
d="M860 372q0 -178 -98 -281t-262 -103q-160 0 -260 104t-100 280t99 277t261 101q161 0 260.5 -101.5t99.5 -276.5zM259 372q0 -129 66 -206t175 -77t175 77t66 206q0 128 -66 203t-175 75t-175 -75t-66 -203z" />
    <glyph glyph-name="Identity.59039" 
d="M243 0v738h248q151 0 233 -52t82 -171q0 -117 -83.5 -176.5t-226.5 -59.5h-137v-279h-116zM359 373h125q207 0 207 142q0 71 -52 100.5t-160 29.5h-120v-272z" />
    <glyph glyph-name="Identity.59040" 
d="M869 -81l22 -88q-52 -23 -129 -23q-117 0 -197.5 49.5t-121.5 133.5q-138 19 -221 121t-83 260q0 175 99 277t260 102t261 -102t100 -277q0 -154 -79.5 -254.5t-210.5 -122.5q27 -45 83 -68t125 -23q47 0 92 15zM498 83q109 0 175.5 78t66.5 211q0 128 -66.5 203
t-175.5 75t-174.5 -75t-65.5 -203q0 -133 65.5 -211t174.5 -78z" />
    <glyph glyph-name="Identity.59041" 
d="M835 0h-133l-196 297h-153v-297h-111v738h262q300 0 300 -214q0 -82 -48.5 -135t-134.5 -72zM353 645v-255h137q198 0 198 134q0 65 -49.5 93t-148.5 28h-137z" />
    <glyph glyph-name="Identity.59042" 
d="M797 200q0 -93 -78.5 -152.5t-209.5 -59.5q-182 0 -303 110l68 82q46 -41 110 -66t126 -25q73 0 120.5 27t47.5 75q0 24 -10.5 42.5t-34 33t-44 23.5t-57.5 22l-114 40q-174 62 -174 193q0 90 76 148t193 58q155 0 261 -96l-63 -76q-89 71 -199 71q-64 0 -107 -25.5
t-43 -69.5q0 -18 9.5 -34t21 -26t36 -21.5t38 -16.5l42.5 -15l112 -40q176 -60 176 -202z" />
    <glyph glyph-name="Identity.59043" 
d="M441 0v641h-257v97h631v-97h-257v-641h-117z" />
    <glyph glyph-name="Identity.59044" 
d="M694 738h116v-421q0 -171 -83 -250t-226 -79q-142 0 -223.5 78.5t-81.5 250.5v421h114v-429q0 -220 191 -220q87 0 140 51.5t53 168.5v429z" />
    <glyph glyph-name="Identity.59045" 
d="M432 0l-267 738h123l132 -383q10 -29 25 -76.5l28 -87t27 -77.5h5l81 241l130 383h119l-267 -738h-136z" />
    <glyph glyph-name="Identity.59046" 
d="M200 0l-179 738h119l85 -379l52 -237h4l62 237l109 379h102l111 -382l62 -234h5l47 234l87 382h111l-173 -738h-145l-116 409q-17 65 -41 171h-5q-29 -129 -41 -171l-114 -409h-142z" />
    <glyph glyph-name="Identity.59047" 
d="M185 0l244 378l-228 360h129l107 -174l67 -110h4l63 110l104 174h123l-228 -362l245 -376h-133l-113 183l-73 119h-4l-70 -119l-111 -183h-126z" />
    <glyph glyph-name="Identity.59048" 
d="M442 0v281l-255 457h124l105 -195l83 -162h4q59 111 84 162l105 195h121l-255 -457v-281h-116z" />
    <glyph glyph-name="Identity.59049" 
d="M213 0v70l422 571h-390v97h540v-69l-424 -570h435v-99h-583z" />
    <glyph glyph-name="Identity.59056" 
d="M246 146q0 93 91 141.5t297 63.5q-2 54 -35.5 87t-101.5 33q-79 0 -185 -61l-44 77q124 77 250 77q113 0 172.5 -60.5t59.5 -172.5v-331h-95l-9 71h-3q-109 -83 -211 -83q-81 0 -133.5 43.5t-52.5 114.5zM357 155q0 -39 30.5 -58t77.5 -19q82 0 169 73v127
q-152 -11 -214.5 -41t-62.5 -82z" />
    <glyph glyph-name="Identity.59057" 
d="M793 285q0 -137 -75 -217t-188 -80q-101 0 -181 69h-4l-11 -57h-91v797h116v-212l-4 -94q99 73 196 73q116 0 179 -76t63 -203zM359 136q67 -52 145 -52q73 0 121.5 53t48.5 146q0 86 -39.5 135.5t-118.5 49.5q-78 0 -157 -67v-265z" />
    <glyph glyph-name="Identity.59058" 
d="M247 275q0 133 89.5 211t221.5 78q121 0 203 -78l-56 -73q-66 55 -141 55q-88 0 -143 -53.5t-55 -139.5t54 -138.5t141 -52.5q84 0 163 63l49 -75q-96 -84 -222 -84q-133 0 -218.5 77t-85.5 210z" />
    <glyph glyph-name="Identity.59059" 
d="M649 60q-74 -72 -190 -72q-113 0 -183 77t-70 209q0 130 78 210.5t185 80.5q95 0 177 -63l-6 91l1 204h116v-797h-93l-11 60h-4zM325 276q0 -89 46.5 -140.5t118.5 -51.5q83 0 151 68v266q-69 50 -147 50q-71 0 -120 -52.5t-49 -139.5z" />
    <glyph glyph-name="Identity.59060" 
d="M225 275q0 130 87 209.5t205 79.5q124 0 194 -71.5t70 -188.5q0 -26 -5 -59h-433q5 -78 61.5 -122.5t143.5 -44.5q91 0 171 47l39 -75q-95 -62 -224 -62q-133 0 -221 78t-88 209zM343 325h332q0 71 -40.5 110.5t-115.5 39.5q-66 0 -116 -40t-60 -110z" />
    <glyph glyph-name="Identity.59061" 
d="M816 778l-26 -85q-58 24 -123 24q-128 0 -128 -127v-38h218v-93h-218v-459h-114v459h-154v87l154 6v36q0 102 57 161.5t173 59.5q82 0 161 -31z" />
    <glyph glyph-name="Identity.59062" 
d="M225 -98q0 68 90 118v5q-57 30 -57 91q0 57 69 104v4q-72 55 -72 143q0 89 68 143t166 54q55 0 91 -12h224v-87h-134q45 -41 45 -101q0 -89 -63.5 -139.5t-162.5 -50.5q-54 0 -98 18q-38 -25 -38 -56q0 -57 108 -57h127q109 0 161.5 -31.5t52.5 -101.5
q0 -82 -86.5 -137.5t-227.5 -55.5q-123 0 -193 38.5t-70 110.5zM489 248q52 0 87 33t35 86q0 52 -36 84.5t-86 32.5q-52 0 -87.5 -32.5t-35.5 -84.5q0 -54 35.5 -86.5t87.5 -32.5zM323 -85q0 -40 46.5 -63t131.5 -23q84 0 137 29.5t53 70.5q0 32 -28.5 45t-88.5 13h-107
q-54 0 -84 9q-60 -35 -60 -81z" />
    <glyph glyph-name="Identity.59063" 
d="M250 0v797h115v-209l-5 -111q101 88 211 88q91 0 139.5 -55.5t48.5 -163.5v-346h-115v332q0 71 -30 101.5t-88 30.5q-77 0 -161 -74v-390h-115z" />
    <glyph glyph-name="Identity.59064" 
d="M506 0v459h-236v93h353v-552h-117zM554 655q-35 0 -57.5 21t-22.5 55t22.5 55t57.5 21t58 -21t23 -55t-23 -55t-58 -21z" />
    <glyph glyph-name="Identity.59065" 
d="M260 459v93h360v-552q0 -111 -54.5 -174.5t-184.5 -63.5q-84 0 -162 38l36 85q61 -30 122 -30q72 0 100 34t28 105v465h-245zM557 655q-35 0 -58 21t-23 55t23 55t58 21t57.5 -21t22.5 -55t-22.5 -55t-57.5 -21z" />
    <glyph glyph-name="Identity.59066" 
d="M273 0v797h113v-516h4l259 270h129l-214 -222l241 -329h-128l-183 253l-108 -111v-142h-113z" />
    <glyph glyph-name="Identity.59067" 
d="M246 704v93h295v-608q0 -106 103 -106q45 0 97 22l29 -86l-15 -5t-15.5 -5l-14 -4t-14.5 -4l-14 -3.5t-15.5 -3.5t-14.5 -2.5t-16 -2t-16.5 -1t-18.5 -0.5q-93 0 -141.5 54t-48.5 155v507h-180z" />
    <glyph glyph-name="Identity.59068" 
d="M66 0v552h94l10 -79h3q100 91 201 91q125 0 171 -101q110 101 210 101q185 0 185 -218v-346h-115v332q0 69 -28 100.5t-85 31.5q-72 0 -152 -74v-390h-116v332q0 68 -27.5 100t-85.5 32q-72 0 -150 -74v-390h-115z" />
    <glyph glyph-name="Identity.59069" 
d="M249 0v552h93l10 -78h3q107 91 214 91q192 0 192 -219v-346h-120v332q0 70 -29 101t-88 31q-42 0 -78.5 -17.5t-82.5 -56.5v-390h-114z" />
    <glyph glyph-name="Identity.59070" 
d="M500 -12q-120 0 -205 78t-85 209q0 132 85 210.5t205 78.5t205 -78.5t85 -210.5q0 -131 -85 -209t-205 -78zM500 84q78 0 123.5 52t45.5 139t-46 140t-123 53t-123 -53t-46 -140t45.5 -139t123.5 -52z" />
    <glyph glyph-name="Identity.59071" 
d="M243 -223v775h95l9 -62h3q103 75 200 75q117 0 179.5 -75.5t62.5 -205.5q0 -137 -75.5 -216.5t-188.5 -79.5q-94 0 -174 60l4 -75v-196h-115zM358 401v-264q66 -53 146 -53q74 0 121.5 52.5t47.5 145.5q0 186 -157 186q-74 0 -158 -67z" />
    <glyph glyph-name="Identity.59072" 
d="M640 -223l1 187l6 94q-82 -70 -186 -70q-116 0 -185 75.5t-69 210.5q0 130 78 210.5t186 80.5q97 0 180 -68h5l11 55h90v-775h-117zM326 276q0 -92 44.5 -142t118.5 -50q86 0 152 67v267q-62 50 -148 50q-69 0 -118 -53t-49 -139z" />
    <glyph glyph-name="Identity.59073" 
d="M316 0v552h95l10 -127h3q42 67 103.5 103t134.5 36q66 0 114 -22l-30 -98q-57 19 -100 19q-133 0 -215 -152v-311h-115z" />
    <glyph glyph-name="Identity.59074" 
d="M236 72l54 74q102 -71 220 -71q65 0 99.5 20.5t34.5 52.5q0 30 -39.5 52.5t-130.5 45.5q-206 52 -206 158q0 70 63.5 115t175.5 45q123 0 228 -71l-54 -72q-85 56 -172 56q-124 0 -124 -68q0 -28 40 -48t120 -41q109 -27 161.5 -64.5t52.5 -100.5q0 -72 -67 -119.5
t-185 -47.5q-151 0 -271 84z" />
    <glyph glyph-name="Identity.59075" 
d="M383 221v238h-151v87l156 6l14 152h96v-152h259v-93h-259v-239q0 -72 30 -106t102 -34q61 0 126 23l23 -84q-89 -31 -175 -31q-118 0 -169.5 60.5t-51.5 172.5z" />
    <glyph glyph-name="Identity.59076" 
d="M641 85q-95 -97 -211 -97q-91 0 -138.5 56t-47.5 162v346h115v-332q0 -132 116 -132q83 0 159 82v382h115v-552h-94l-10 85h-4z" />
    <glyph glyph-name="Identity.59077" 
d="M436 0l-223 552h118l112 -297q9 -24 18.5 -52l21.5 -61.5l18 -51.5h4l57 165l113 297h112l-218 -552h-133z" />
    <glyph glyph-name="Identity.59078" 
d="M238 0l-175 552h116l89 -300l40 -156h6q23 86 44 155l90 301h108l93 -300l46 -156h5q7 26 19.5 78t19.5 78l87 300h108l-166 -552h-138l-83 272l-46 161h-5q-17 -67 -46 -162l-80 -271h-132z" />
    <glyph glyph-name="Identity.59079" 
d="M226 0l203 288l-187 264h124l78 -111q10 -16 31.5 -47.5l30.5 -45.5h5l54 93l72 111h121l-188 -277l203 -275h-125l-86 117l-70 98h-4l-61 -98l-79 -117h-122z" />
    <glyph glyph-name="Identity.59080" 
d="M558 -33q-40 -97 -95.5 -147t-143.5 -50q-44 0 -78 13l23 89q25 -9 48 -9q93 0 135 103l13 38l-248 548h118l121 -285l61 -155h5l54 155l106 285h111z" />
    <glyph glyph-name="Identity.59081" 
d="M255 0v62l335 398h-300v92h452v-62l-335 -398h346v-92h-498z" />
  </font>
</defs>
</svg>
