<?xml version="1.0" standalone="no"?>
<!DOCTYPE svg PUBLIC "-//W3C//DTD SVG 1.1//EN" "http://www.w3.org/Graphics/SVG/1.1/DTD/svg11.dtd" >
<svg>
<metadata>
Created by FontForge 20090622 at Thu Mar 10 02:10:08 2016
 By deploy user
</metadata>
<defs>
<font id="SourceHanSansTW-Heavy-Alphabetic" horiz-adv-x="1000" vert-adv-y="1000" >
  <font-face 
    font-family="SourceHanSansTW-Heavy-Alphabetic"
    font-weight="800"
    font-stretch="normal"
    units-per-em="1000"
    panose-1="2 0 9 3 0 0 0 0 0 0"
    ascent="800"
    descent="-200"
    bbox="0 -240 998 848"
    underline-thickness="50"
    underline-position="-100"
  />
<missing-glyph horiz-adv-x="364" 
d="M33 0v666h265v-666h-265zM66 33h199v600h-199v-600z" />
    <glyph glyph-name=".notdef" horiz-adv-x="364" 
d="M33 0v666h265v-666h-265zM66 33h199v600h-199v-600z" />
    <glyph glyph-name=".null" horiz-adv-x="0" vert-adv-y="0" 
 />
    <glyph glyph-name="nonmarkingreturn" horiz-adv-x="333" 
 />
    <glyph glyph-name="Identity.59024" 
d="M677 0l-49 170h-262l-48 -170h-191l256 748h230l262 -748h-198zM404 308h186l-19 64l-73 243h-4l-71 -243z" />
    <glyph glyph-name="Identity.59025" 
d="M212 0v748h283q69 0 121.5 -9t94.5 -30t64 -58.5t22 -90.5q0 -52 -28 -98t-77 -63v-4q67 -16 106.5 -60t39.5 -115q0 -110 -85 -165t-234 -55h-307zM391 449h112q54 0 85.5 21.5t31.5 61.5q0 80 -117 80h-112v-163zM391 137h130q139 0 139 95q0 85 -139 85h-130v-180z
" />
    <glyph glyph-name="Identity.59026" 
d="M844 99q-111 -111 -270 -111q-168 0 -275 99t-107 281q0 183 106.5 287.5t276.5 104.5q144 0 255 -100l-97 -115q-78 62 -155 62q-92 0 -147.5 -62.5t-55.5 -170.5q0 -109 56 -169.5t151 -60.5q91 0 167 72z" />
    <glyph glyph-name="Identity.59027" 
d="M193 0v748h231q195 0 305.5 -90.5t110.5 -279.5q0 -188 -109.5 -283t-295.5 -95h-242zM370 144h46q114 0 177 52.5t63 181.5q0 128 -62.5 178t-177.5 50h-46v-462z" />
    <glyph glyph-name="Identity.59028" 
d="M250 0v748h523v-148h-345v-142h256v-150h-256v-158h358v-150h-536z" />
    <glyph glyph-name="Identity.59029" 
d="M263 0v748h528v-148h-350v-166h261v-150h-261v-284h-178z" />
    <glyph glyph-name="Identity.59030" 
d="M832 79q-107 -91 -270 -91q-179 0 -292 99t-113 281q0 180 113.5 286t282.5 106q159 0 269 -99l-100 -114q-76 60 -163 60q-93 0 -156 -63.5t-63 -169.5q0 -111 63 -171.5t179 -60.5q57 0 92 20v117h-144v146h302v-346z" />
    <glyph glyph-name="Identity.59031" 
d="M170 0v748h179v-287h303v287h177v-748h-177v306h-303v-306h-179z" />
    <glyph glyph-name="Identity.59032" 
d="M212 0v148h198v450h-198v150h580v-150h-202v-450h202v-148h-580z" />
    <glyph glyph-name="Identity.59033" 
d="M732 254q0 -115 -68 -190.5t-194 -75.5q-176 0 -269 140l122 93q49 -79 121 -79q109 0 109 126v480h179v-494z" />
    <glyph glyph-name="Identity.59034" 
d="M203 0v748h179v-309h3l259 309h202l-256 -302l301 -446h-199l-207 314l-103 -122v-192h-179z" />
    <glyph glyph-name="Identity.59035" 
d="M267 0v748h179v-598h340v-150h-519z" />
    <glyph glyph-name="Identity.59036" 
d="M113 0v748h193l142 -325l22.5 -58.5t28.5 -77.5h5l53 136l135 325h194v-748h-163v255q0 99 22 262h-5l-73 -182l-120 -272h-98l-121 272l-72 182h-4q21 -173 21 -262v-255h-160z" />
    <glyph glyph-name="Identity.59037" 
d="M177 0v748h182l211 -349l99 -177h5q-22 160 -22 280v246h170v-748h-182l-211 352l-97 175h-6q21 -196 21 -280v-247h-170z" />
    <glyph glyph-name="Identity.59038" 
d="M873 378q0 -183 -100 -286.5t-273 -103.5q-167 0 -270.5 104.5t-103.5 285.5q0 180 103 281t271 101t270.5 -101.5t102.5 -280.5zM309 378q0 -109 52 -172.5t139 -63.5t139 63.5t52 172.5q0 107 -51.5 168t-139.5 61t-139.5 -61t-51.5 -168z" />
    <glyph glyph-name="Identity.59039" 
d="M217 0v748h283q327 0 327 -244q0 -126 -90 -191.5t-231 -65.5h-110v-247h-179zM396 388h100q157 0 157 116q0 55 -41 79t-121 24h-95v-219z" />
    <glyph glyph-name="Identity.59040" 
d="M895 -52l33 -130q-58 -28 -152 -28q-131 0 -221 55t-138 149q-135 27 -213.5 127.5t-78.5 256.5q0 179 102.5 280.5t269.5 101.5t270.5 -101.5t103.5 -280.5q0 -147 -71 -245.5t-192 -131.5q26 -35 80 -52.5t111 -17.5q47 0 96 17zM497 132q87 0 139.5 65.5t52.5 180.5
q0 107 -52.5 168t-139.5 61t-138.5 -61t-51.5 -168q0 -116 51 -181t139 -65z" />
    <glyph glyph-name="Identity.59041" 
d="M864 0h-202l-161 262h-119v-262h-169v748h284q322 0 322 -236q0 -78 -39.5 -133.5t-107.5 -83.5zM382 607v-204h103q159 0 159 109q0 52 -39 73.5t-120 21.5h-103z" />
    <glyph glyph-name="Identity.59042" 
d="M814 217q0 -99 -83.5 -164t-223.5 -65q-188 0 -319 110l101 125q45 -36 106.5 -58.5t114.5 -22.5q51 0 86 14.5t35 45.5q0 37 -62 63q-19 8 -74 26l-99 33q-74 25 -125.5 79t-51.5 133q0 96 83 160t210 64q171 0 285 -102l-92 -116q-94 65 -195 65q-46 0 -78 -15.5
t-32 -47.5q0 -18 18 -32.5t44 -24.5t64 -22q11 -3 17 -5l98 -33q79 -26 126 -79t47 -131z" />
    <glyph glyph-name="Identity.59043" 
d="M410 0v600h-240v148h660v-148h-241v-600h-179z" />
    <glyph glyph-name="Identity.59044" 
d="M656 748h179v-398q0 -362 -333 -362q-327 0 -327 362v398h175v-417q0 -101 39.5 -145t112.5 -44q154 0 154 189v417z" />
    <glyph glyph-name="Identity.59045" 
d="M392 0l-253 748h189l103 -343q8 -25 31.5 -108t38.5 -130h6l70 238l102 343h182l-255 -748h-214z" />
    <glyph glyph-name="Identity.59046" 
d="M163 0l-163 748h183l60 -334q12 -72 43 -236h4l57 236l84 334h149l86 -338l56 -232h6l19.5 123.5l17.5 108.5l63 338h170l-156 -748h-227l-77 324q-18 75 -36 177h-5q-21 -117 -35 -177l-76 -324h-223z" />
    <glyph glyph-name="Identity.59047" 
d="M154 0l236 380l-221 368h199l73 -137l65 -120h4l62 120l70 137h188l-221 -370l236 -378h-203l-81 145l-66 122h-4l-66 -122l-77 -145h-194z" />
    <glyph glyph-name="Identity.59048" 
d="M411 0v268l-253 480h190l79 -165l72 -166h4l76 166l77 165h187l-254 -480v-268h-178z" />
    <glyph glyph-name="Identity.59049" 
d="M204 0v108l362 492h-334v148h562v-107l-363 -491h374v-150h-601z" />
    <glyph glyph-name="Identity.59056" 
d="M223 160q0 97 87 147t284 62q-8 75 -117 75q-65 0 -171 -52l-64 117q135 76 269 76q125 0 193.5 -65t68.5 -196v-324h-145l-13 63h-5q-100 -75 -200 -75q-85 0 -136 49t-51 123zM393 174q0 -50 74 -50q62 0 127 51v87q-111 -5 -156 -27.5t-45 -60.5z" />
    <glyph glyph-name="Identity.59057" 
d="M809 295q0 -143 -72.5 -225t-184.5 -82q-106 0 -174 72h-5l-16 -60h-139v800h179v-193l-5 -85q81 62 177 62q111 0 175.5 -78.5t64.5 -210.5zM397 172q46 -38 107 -38q51 0 86.5 39t35.5 118q0 73 -30.5 110t-85.5 37q-65 0 -113 -48v-218z" />
    <glyph glyph-name="Identity.59058" 
d="M230 286q0 137 96.5 217.5t235.5 80.5q135 0 214 -76l-82 -110q-56 40 -122 40q-71 0 -115 -41.5t-44 -110.5t43 -110.5t111 -41.5q70 0 147 52l72 -114q-100 -84 -237 -84q-139 0 -229 80t-90 218z" />
    <glyph glyph-name="Identity.59059" 
d="M619 53q-60 -65 -176 -65q-111 0 -182 81t-71 215t77.5 217t176.5 83q98 0 165 -60l-8 85l1 191h179v-800h-143l-15 53h-4zM373 287q0 -76 35 -114.5t87 -38.5q69 0 107 50v220q-46 34 -111 34q-49 0 -83.5 -38.5t-34.5 -112.5z" />
    <glyph glyph-name="Identity.59060" 
d="M207 286q0 135 91.5 216.5t216.5 81.5q133 0 206.5 -77t73.5 -197q0 -21 -8 -77h-398q9 -56 55 -82.5t115 -26.5q76 0 155 38l58 -110q-99 -64 -238 -64q-142 0 -234.5 80.5t-92.5 217.5zM388 351h245q0 45 -28.5 72t-86.5 27q-49 0 -85 -25t-45 -74z" />
    <glyph glyph-name="Identity.59061" 
d="M829 782l-35 -131q-60 21 -117 21q-53 0 -78 -21t-25 -68v-11h192v-140h-192v-432h-178v432h-149v134l149 6v11q0 102 64.5 165.5t194.5 63.5q80 0 174 -30z" />
    <glyph glyph-name="Identity.59062" 
d="M201 -95q0 67 89 112v5q-58 34 -58 98q0 58 71 107v4q-79 55 -79 147q0 99 75 153t184 54q64 0 104 -13h232v-129h-112q23 -33 23 -70q0 -96 -68 -144t-179 -48q-48 0 -87 10q-23 -17 -23 -39t22 -31t72 -9h113q234 0 234 -147q0 -90 -94 -147.5t-250 -57.5
q-122 0 -195.5 35.5t-73.5 109.5zM483 287q38 0 64 24.5t26 66.5t-26 65.5t-64 23.5q-40 0 -65.5 -23.5t-25.5 -65.5q0 -43 25.5 -67t65.5 -24zM346 -68q0 -30 40.5 -46t110.5 -16q65 0 106.5 18.5t41.5 47.5q0 23 -23.5 31.5t-73.5 8.5h-78q-58 0 -87 7q-37 -24 -37 -51z
" />
    <glyph glyph-name="Identity.59063" 
d="M220 0v800h177v-193l-8 -101q94 78 205 78q93 0 142.5 -59.5t49.5 -172.5v-352h-178v330q0 59 -23.5 80t-65.5 21q-64 0 -122 -51v-380h-177z" />
    <glyph glyph-name="Identity.59064" 
d="M472 0v432h-210v140h390v-572h-180zM554 652q-48 0 -78 27t-30 71q0 43 30 70.5t78 27.5t78 -27.5t30 -70.5q0 -44 -30 -71t-78 -27z" />
    <glyph glyph-name="Identity.59065" 
d="M244 432v140h404v-532q0 -263 -269 -263q-95 0 -178 39l52 128q60 -27 115 -27q57 0 79.5 27t22.5 89v399h-226zM558 652q-48 0 -78 27t-30 71q0 43 30 70.5t78 27.5t78 -27.5t30 -70.5q0 -44 -30 -71t-78 -27z" />
    <glyph glyph-name="Identity.59066" 
d="M233 0v800h173v-450h4l210 219h196l-226 -233l246 -336h-197l-156 220l-77 -80v-140h-173z" />
    <glyph glyph-name="Identity.59067" 
d="M223 660v140h341v-577q0 -48 26 -69.5t65 -21.5q38 0 86 17l40 -131q-92 -26 -141 -29q-15 -1 -32 -1q-107 0 -164.5 65t-57.5 177v430h-163z" />
    <glyph glyph-name="Identity.59068" 
d="M36 0v572h145l12 -75h5q99 86 203 86q122 0 173 -94q103 94 206 94q189 0 189 -231v-352h-177v330q0 55 -22 78t-64 23q-58 0 -115 -51v-380h-179v330q0 57 -20 79t-65 22q-57 0 -114 -51v-380h-177z" />
    <glyph glyph-name="Identity.59069" 
d="M220 0v572h142l14 -74h4q105 86 211 86q100 0 150 -60.5t50 -171.5v-352h-187v330q0 56 -23 78.5t-66 22.5q-57 0 -119 -51v-380h-176z" />
    <glyph glyph-name="Identity.59070" 
d="M500 -12q-123 0 -213 81.5t-90 216.5q0 136 89.5 217t213.5 81t213.5 -81t89.5 -217q0 -135 -90 -216.5t-213 -81.5zM500 134q60 0 90 40t30 112q0 71 -30 111.5t-90 40.5t-90 -40.5t-30 -111.5q0 -72 30 -112t90 -40z" />
    <glyph glyph-name="Identity.59071" 
d="M219 -207v779h146l11 -58h4q89 70 189 70q115 0 177.5 -78t62.5 -212q0 -143 -72.5 -224.5t-186.5 -81.5q-97 0 -160 56l6 -86v-165h-177zM396 390v-217q42 -39 108 -39q53 0 87.5 38.5t34.5 118.5q0 147 -115 147q-64 0 -115 -48z" />
    <glyph glyph-name="Identity.59072" 
d="M603 -207v171l7 82q-64 -58 -164 -58q-117 0 -186 79.5t-69 216.5q0 135 76.5 217.5t180.5 82.5q99 0 174 -72h7l16 60h136v-779h-178zM374 287q0 -77 32.5 -115t86.5 -38q72 0 110 48v222q-41 34 -114 34q-47 0 -81 -38.5t-34 -112.5z" />
    <glyph glyph-name="Identity.59073" 
d="M284 0v572h146l14 -124h4q40 68 99.5 102t129.5 34t117 -22l-44 -150q-59 18 -100 18q-124 0 -188 -137v-293h-178z" />
    <glyph glyph-name="Identity.59074" 
d="M214 74l79 110q109 -66 205 -66q103 0 103 44q0 22 -35.5 37.5t-113.5 37.5q-204 56 -204 168q0 81 73 130t195 49q128 0 250 -77l-80 -107q-92 54 -165 54q-95 0 -95 -41q0 -27 78 -51q15 -5 65 -18q46 -12 79 -25.5t65 -33t48.5 -48.5t16.5 -65q0 -80 -75.5 -132
t-209.5 -52q-73 0 -148.5 24t-130.5 62z" />
    <glyph glyph-name="Identity.59075" 
d="M350 241v191h-141v134l150 6l23 151h147v-151h237v-140h-237v-189q0 -62 28 -89t89 -27q46 0 110 20l33 -129q-109 -30 -189 -30q-250 0 -250 253z" />
    <glyph glyph-name="Identity.59076" 
d="M614 81q-88 -93 -207 -93q-93 0 -141.5 61.5t-48.5 170.5v352h178v-330q0 -101 88 -101q68 0 117 58v373h178v-572h-144l-15 81h-5z" />
    <glyph glyph-name="Identity.59077" 
d="M401 0l-215 572h179l85 -264q18 -56 52 -176h5q27 102 51 176l85 264h171l-208 -572h-205z" />
    <glyph glyph-name="Identity.59078" 
d="M200 0l-165 572h176l63 -258q26 -120 38 -170h6q24 106 43 167l65 261h154l69 -258l46 -170h6q6 28 16 85t17 85l62 258h165l-155 -572h-208l-55 217l-43 170h-5q-1 -6 -40 -170l-52 -217h-203z" />
    <glyph glyph-name="Identity.59079" 
d="M194 0l196 298l-183 274h191l55 -89l28 -47.5t29 -50.5h5l46 99l47 88h185l-185 -295l197 -277h-191l-62 90l-33 50.5l-32 48.5h-4l-25.5 -49t-25.5 -50l-52 -90h-186z" />
    <glyph glyph-name="Identity.59080" 
d="M814 572l-219 -573q-51 -116 -110.5 -167t-161.5 -51q-49 0 -93 13l34 134q20 -8 44 -8q90 0 113 68l9 29l-244 555h180l91 -239q3 -8 55 -161h5l48 161l79 239h170z" />
    <glyph glyph-name="Identity.59081" 
d="M260 0v95l261 338h-234v139h462v-95l-262 -338h272v-139h-499z" />
  </font>
</defs>
</svg>
